free web stats
[DVDRip] Fin (2012) [BDrip m720p][Castellano(Ac3)][Intriga. Aventuras] Descargar Gratis | DVDRip descargar DVDRip descargar

[DVDRip] Fin (2012) [BDrip m720p][Castellano(Ac3)][Intriga. Aventuras] Descargar Gratis

Publicado el Sábado 16 feb 2013 por housedir   

Fin (2012) [BDrip m720p][Castellano(Ac3)][Intriga. Aventuras] Descargar Gratis dvdrip descargar, ver online, castellano, español latino, full HD, BRRip, HDRip, descarga directa, torrent, MEGA, mediafire





TÍTULO ORIGINAL Fin
AÑO 2012
DURACIÓN 90 min.
PAÍS [España]
DIRECTOR Jorge Torregrossa
GUIÓN Sergio G. Sánchez, Jorge Guerricaechevarría (Novela: David Monteagudo)
MÚSICA Lucio Godoy
FOTOGRAFÍA José David Montero
REPARTO Maribel Verdú, Daniel Grao, Clara Lago, Blanca Romero, Antonio Garrido, Carmen Ruíz, Miquel Fernández, Andrés Velencoso
PRODUCTORA Mod Producciones / Apaches Entertainment / Misent Producciones / Antena 3 Films
PREMIOS 2012: Premios Goya: Nominada a mejor guión adaptado
2012: Festival de Sevilla: Sección oficial (fuera de concurso)
GÉNERO Intriga. Aventuras | Supervivencia

SINOPSIS

Un grupo de amigos se reúne para rememorar la noche que vivieron quince años antes en un refugio de montaña. Tras un inesperado apagón, descubren que las estrellas brillan más de lo habitual. A la mañana siguiente, uno de ellos desaparece sin dejar rastro…

Formato: Matroska
Tamaño: 2.00 Gb
Resolucion: 1280×546
Audio 1: AC3 448 kbps Castellano

MEDIAINFO


Código:
Format                                   : Matroska
Format version : Version 2
File size : 2.00 GiB
Duration : 1h 32mn
Overall bit rate : 3 092 Kbps
Encoded date : UTC 2013-02-15 17:54:15
Writing application : mkvmerge v4.0.0 (‘The Stars were mine’) built on Jun 6 2010 16:18:42
Writing library : libebml v1.0.0 + libmatroska v1.0.0
Video
ID : 1
Format : AVC
Format/Info : Advanced Video Codec
Format profile : High@L4.1
Format settings, CABAC : Yes
Format settings, ReFrames : 9 frames
Codec ID : V_MPEG4/ISO/AVC
Duration : 1h 32mn
Bit rate : 2 642 Kbps
Width : 1 280 pixels
Height : 546 pixels
Display aspect ratio : 2.35:1
Frame rate : 24.000 fps
Color space : YUV
Chroma subsampling : 4:2:0
Bit depth : 8 bits
Scan type : Progressive
Bits/(Pixel*Frame) : 0.158
Stream size : 1.67 GiB (84%)
Writing library : x264 core 129 r2245 bc13772
Encoding settings : cabac=1 / ref=9 / deblock=1:-3:-3 / analyse=0×3:0×113 / me=umh / subme=10 / psy=1 / psy_rd=1.00:0.00 / mixed_ref=1 / me_range=16 / chroma_me=1 / trellis=2 / 8x8dct=1 / cqm=0 / deadzone=21,11 / fast_pskip=1 / chroma_qp_offset=-2 / threads=12 / lookahead_threads=2 / sliced_threads=0 / nr=0 / decimate=1 / interlaced=0 / bluray_compat=0 / constrained_intra=0 / bframes=3 / b_pyramid=2 / b_adapt=1 / b_bias=0 / direct=1 / weightb=1 / open_gop=0 / weightp=2 / keyint=250 / keyint_min=24 / scenecut=40 / intra_refresh=0 / rc=2pass / mbtree=0 / bitrate=2642 / ratetol=1.0 / qcomp=0.60 / qpmin=0 / qpmax=69 / qpstep=4 / cplxblur=20.0 / qblur=0.5 / ip_ratio=1.40 / pb_ratio=1.30 / aq=1:0.80
Language : Spanish
Default : Yes
Forced : No
Audio
ID : 2
Format : AC-3
Format/Info : Audio Coding 3
Mode extension : CM (complete main)
Codec ID : A_AC3
Duration : 1h 32mn
Bit rate mode : Constant
Bit rate : 448 Kbps
Channel(s) : 6 channels
Channel positions : Front: L C R, Side: L R, LFE
Sampling rate : 48.0 KHz
Bit depth : 16 bits
Compression mode : Lossy
Stream size : 297 MiB (14%)
Language : Spanish
Default : Yes
Forced : No






Uploaded


Código:
http://***********/59u554nb





Uploaded


Código:
http://***********/frozj4vk

http://***********/d75zq874

http://***********/0rtmzmz0


Freakshare


Código:
http://***********.com/files/uzgivc8l/Fin.m720p.yamil.part1.rar.html

http://***********.com/files/4szejy9v/Fin.m720p.yamil.part2.rar.html

http://***********.com/files/6krdeo1p/Fin.m720p.yamil.part3.rar.html


Rapidgator


Código:
http://***********.net/file/78411743/Fin.m720p.yamil.part1.rar.html

http://***********.net/file/78411746/Fin.m720p.yamil.part2.rar.html

http://***********.net/file/78411750/Fin.m720p.yamil.part3.rar.html


Bitshare


Código:
http://***********.com/files/49v45qao/Fin.m720p.yamil.part1.rar.html

http://***********.com/files/2b01b0ba/Fin.m720p.yamil.part2.rar.html

http://***********.com/files/rxid2fic/Fin.m720p.yamil.part3.rar.html


Turbobit


Código:
http://***********.net/6x23md6qui35.html

http://***********.net/y43qztnab1sz.html

http://***********.net/lhr04g4qr6h4.html




Fin (2012) [BDrip m720p][Castellano(Ac3)][Intriga. Aventuras] Descargar Gratis dvdrip descargar, ver online, castellano, español latino, full HD, BRRip, HDRip, descarga directa, torrent, MEGA, mediafire

Gracias por calificar! Ahora puedes decirle al mundo como se siente a traves de los medios sociales.
Lo que acabo de ver es..
  • Raro
  • Asqueroso
  • Divertido
  • Interesante
  • Emotivo
  • Increible
Gracias por calificar! Ahora puedes decirle al mundo como se siente a traves de los medios sociales.
Lo que acabo de ver es..
  • Raro
  • Asqueroso
  • Divertido
  • Interesante
  • Emotivo
  • Increible